<?xml version="1.0" standalone="no"?>
<!DOCTYPE svg PUBLIC "-//W3C//DTD SVG 1.1//EN" "http://www.w3.org/Graphics/SVG/1.1/DTD/svg11.dtd" >
<svg xmlns="http://www.w3.org/2000/svg">
<metadata></metadata>
<defs>
<font id="blairmditc_ttmedium" horiz-adv-x="1935" >
<font-face units-per-em="2048" ascent="1638" descent="-410" />
<missing-glyph horiz-adv-x="614" />
<glyph horiz-adv-x="0" />
<glyph unicode="&#xd;" horiz-adv-x="614" />
<glyph unicode=" "  horiz-adv-x="614" />
<glyph unicode="&#x09;" horiz-adv-x="614" />
<glyph unicode="&#xa0;" horiz-adv-x="614" />
<glyph unicode="!" horiz-adv-x="731" d="M197 0v223h317v-223h-317zM199 1483h311v-113l-57 -979h-197z" />
<glyph unicode="&#x22;" horiz-adv-x="614" d="M90 881v555h139v-555h-139zM385 881v555h139v-555h-139z" />
<glyph unicode="#" horiz-adv-x="1560" d="M154 602v191h245l37 235h-215v191h248l43 264h205l-41 -264h303l43 264h205l-43 -264h213v-191h-248l-37 -235h215v-191h-248l-59 -364h-205l62 364h-306l-61 -364h-205l60 364h-211zM602 793h305l39 235h-305z" />
<glyph unicode="$" horiz-adv-x="1943" d="M106 223l134 178q260 -166 573 -200v477q-655 18 -655 379q0 193 168 307.5t487 134.5v84h246v-88q412 -57 620 -211l-149 -164q-217 115 -471 152v-381q709 -37 708 -430q0 -446 -708 -484v-112h-246v117q-453 37 -707 241zM416 1090q0 -165 397 -183v375 q-397 -16 -397 -192zM1059 193q442 29 442 251q0 209 -442 222v-473z" />
<glyph unicode="%" horiz-adv-x="2342" d="M156 1110q0 168 121.5 285.5t291.5 117.5q172 0 293 -118.5t121 -284.5t-122 -283.5t-292 -117.5q-172 0 -292.5 116.5t-120.5 284.5zM369 -20l1327 1503h278l-1325 -1503h-280zM373 1110q0 -84 57 -141.5t139 -57.5t138.5 57.5t56.5 141.5t-56.5 141.5t-138.5 57.5 q-84 0 -140 -57.5t-56 -141.5zM1360 375q0 166 123 284.5t293 118.5q168 0 289.5 -117.5t121.5 -285.5t-121.5 -286t-289.5 -118q-170 0 -293 119t-123 285zM1577 375q0 -82 58.5 -140.5t140.5 -58.5t137 57.5t55 141.5t-55 141t-137 57q-84 0 -141.5 -57t-57.5 -141z" />
<glyph unicode="&#x26;" horiz-adv-x="1929" d="M84 418q0 324 516 446q-76 121 -76 246t80 227q133 172 361 172q178 0 289.5 -103t111.5 -269q0 -293 -385 -406q135 -172 297 -309q125 98 213 352h252q-82 -268 -287 -479q166 -74 348 -74v-227q-287 14 -538 147q-246 -168 -584 -168q-266 0 -432 127t-166 318z M332 410q0 -98 100 -161t275 -63q170 1 385 103q-190 172 -353 387q-408 -63 -407 -266zM766 1110q0 -84 76 -201q285 35 284 234q0 66 -48 111.5t-122 45.5q-84 0 -137 -53t-53 -137z" />
<glyph unicode="'" horiz-adv-x="317" d="M90 881v555h139v-555h-139z" />
<glyph unicode="(" horiz-adv-x="884" d="M147 664q0 401 179 688q150 242 438 272v-115h-4q-158 0 -260 -223q-109 -233 -109 -622q0 -393 102.5 -615.5t268.5 -222.5h2v-115q-291 31 -438 269q-178 285 -179 684z" />
<glyph unicode=")" horiz-adv-x="892" d="M119 -174h2q164 0 266 219q104 227 105 619q0 387 -109 622q-102 223 -260 223h-4v115q289 -31 436 -272q180 -293 180 -688q0 -399 -178 -687q-145 -233 -438 -266v115z" />
<glyph unicode="*" horiz-adv-x="1179" d="M109 1063l63 194l326 -124l-39 350h243l-38 -350l325 124l64 -194l-348 -68l225 -274l-166 -119l-184 311l-183 -311l-166 119l226 274z" />
<glyph unicode="+" horiz-adv-x="800" d="M100 928v215q115 41 203 117h244v-1260h-246v1012z" />
<glyph unicode="," horiz-adv-x="727" d="M205 0v223h317v-280q0 -223 -256 -224h-47v121q154 2 154 86v74h-168z" />
<glyph unicode="-" horiz-adv-x="1087" d="M123 543v223h842v-223h-842z" />
<glyph unicode="." horiz-adv-x="727" d="M205 0v223h317v-223h-317z" />
<glyph unicode="/" horiz-adv-x="1110" d="M-59 -20l950 1503h278l-948 -1503h-280z" />
<glyph unicode="0" horiz-adv-x="1908" d="M176 741q0 311 234 539q225 219 544 219q324 0 547 -219q232 -228 232 -539q0 -315 -229.5 -538t-549.5 -223q-322 0 -546 221q-231 227 -232 540zM424 741q0 -236 149.5 -387t380.5 -151t381 151t150 387q0 238 -148.5 388.5t-382.5 150.5q-233 0 -381.5 -150.5 t-148.5 -388.5z" />
<glyph unicode="1" horiz-adv-x="784" d="M57 1135v213q135 43 240 135h244v-1483h-246v1237z" />
<glyph unicode="2" horiz-adv-x="1716" d="M63 0q25 551 617 735q12 4 268 74q141 39 211 78q106 59 107 160q0 104 -105.5 168.5t-294.5 64.5q-319 0 -579 -207l-156 164q340 264 739 264q293 0 477.5 -133t184.5 -338q0 -293 -391 -403q-145 -33 -428 -113q-266 -92 -359 -291h1215v-223h-1506z" />
<glyph unicode="3" horiz-adv-x="1763" d="M31 279l164 163q266 -242 626 -241q498 0 498 248q0 221 -590 221q-76 0 -117 -2v200h226q414 0 413 219q0 193 -403 193q-307 0 -567 -166l-142 152q340 236 707 235q311 0 485 -109.5t174 -293.5q0 -216 -227 -318q301 -100 301 -364q0 -205 -201 -320 q-207 -119 -583 -119q-248 0 -426 70q-186 72 -338 232z" />
<glyph unicode="4" horiz-adv-x="1660" d="M51 291v223l981 969h242v-969h340v-223h-340v-291h-246v291h-977zM313 514h715v709z" />
<glyph unicode="5" horiz-adv-x="1810" d="M82 279l192 131q236 -217 627 -217q219 0 346 78.5t127 205.5q0 123 -134 198t-378 75q-279 0 -536 -134l-209 115l231 752h1168v-223h-1002l-141 -408q256 104 510 104q344 0 547 -135q197 -131 196 -344q0 -221 -196.5 -360.5t-524.5 -139.5q-528 0 -823 302z" />
<glyph unicode="6" horiz-adv-x="1871" d="M154 733q0 254 141 445q244 328 692 327q410 0 651 -270l-180 -143q-168 190 -471 190q-184 0 -323 -84q-264 -160 -265 -430q1 -37 11 -92q293 256 604 256q305 0 496.5 -133t191.5 -338q0 -223 -183.5 -354.5t-512.5 -131.5q-403 0 -627.5 202t-224.5 556zM465 451 q133 -248 534 -248q207 0 329 70.5t122 181.5q0 117 -123 193.5t-321 76.5q-340 0 -541 -274z" />
<glyph unicode="7" horiz-adv-x="1566" d="M31 1260v223h1487v-223l-967 -1260h-283l965 1260h-1202z" />
<glyph unicode="8" horiz-adv-x="1828" d="M123 414q0 123 94 219t270 145q-262 86 -262 307q0 193 179.5 303.5t506.5 110.5q330 0 511.5 -110.5t181.5 -303.5q-1 -221 -263 -307q176 -49 270.5 -145t94.5 -219q0 -205 -205 -322t-586 -117t-586.5 117t-205.5 322zM379 434q0 -233 536 -233q535 0 535 233 q0 236 -535 236q-537 0 -536 -236zM471 1083q0 -100 114.5 -157.5t329.5 -57.5t329 57.5t114 157.5q0 197 -443 197q-444 0 -444 -197z" />
<glyph unicode="9" horiz-adv-x="1822" d="M78 1008q0 225 189.5 359t520.5 134q387 0 618.5 -211t231.5 -561q0 -334 -245 -551q-231 -205 -576 -205q-410 0 -665 252l165 160q158 -186 484 -186q131 0 248 45q152 59 242.5 191t90.5 294q0 49 -12 82q-227 -262 -620 -262q-309 0 -490.5 125t-181.5 334zM328 1028 q0 -121 114.5 -193.5t317.5 -72.5q360 -1 555 278q-150 244 -547 244q-205 0 -322.5 -70.5t-117.5 -185.5z" />
<glyph unicode=":" horiz-adv-x="727" d="M205 0v223h317v-223h-317zM205 745v224h317v-224h-317z" />
<glyph unicode=";" horiz-adv-x="737" d="M205 0v223h317v-280q0 -223 -256 -224h-47v121q154 2 154 86v74h-168zM205 745v224h317v-224h-317z" />
<glyph unicode="&#x3c;" horiz-adv-x="1589" d="M117 0q20 334 248 502q92 68 215 112q45 16 208 64q207 59 261 84q90 43 90 115q0 176 -322 176q-270 0 -491 -174l-160 163q311 233 655 234q264 0 426 -113q156 -111 156 -286q0 -156 -105 -244q-92 -76 -317 -133q-285 -72 -346 -97q-154 -61 -223 -180h1022v-223 h-1317z" />
<glyph unicode="=" horiz-adv-x="1597" d="M51 250l156 153q233 -199 528 -198q193 0 309 55q111 51 111 133q0 158 -479 158q-78 0 -121 -2v205q43 -2 123 -2q420 0 420 163q0 137 -326 138q-266 0 -481 -144l-150 156q311 211 633 211q274 0 428 -95.5t154 -256.5q0 -152 -160 -258q223 -113 223 -299 q0 -182 -174 -283q-180 -102 -514 -102q-414 0 -680 268z" />
<glyph unicode="&#x3e;" horiz-adv-x="1531" d="M55 238v221l848 801h246v-799h289v-223h-289v-238h-246v238h-848zM319 461h584v549z" />
<glyph unicode="?" horiz-adv-x="1488" d="M45 1208q276 285 680 285q313 0 491.5 -119t178.5 -319q0 -147 -73 -227t-239 -128q-102 -25 -276 -84q-123 -59 -131 -225h-199q-2 16 -2 49q0 154 78 246t250 154q213 76 237 88q90 49 90 135q0 213 -405 213q-326 0 -510 -201zM422 0v223h317v-223h-317z" />
<glyph unicode="@" horiz-adv-x="1699" d="M129 643q0 162 64 301q88 195 278.5 311.5t423.5 116.5q203 0 377 -100q141 -82 221 -220.5t80 -299.5q0 -211 -134 -351.5t-335 -140.5q-158 0 -193 102q-92 -61 -182 -61q-111 0 -177.5 75t-66.5 197q0 227 166 377q98 88 230 88q70 0 133 -37l16 29h168 q-150 -475 -149 -557q0 -92 92 -92q117 0 184.5 97t67.5 267q0 219 -136.5 351.5t-361.5 132.5q-262 0 -422 -158t-160 -416q0 -553 578 -553h12v-141h-78q-307 0 -501.5 192.5t-194.5 489.5zM651 545q0 -115 92 -115q86 0 153 103t67 253q0 131 -93 132q-84 0 -151.5 -109 t-67.5 -264z" />
<glyph unicode="A" horiz-adv-x="1939" d="M31 0l784 1483h309l785 -1483h-269l-172 332h-997l-172 -332h-268zM592 555h756l-377 717z" />
<glyph unicode="B" horiz-adv-x="2164" d="M248 0v1483h1198q225 0 354 -110.5t129 -297.5q0 -200 -192 -311q254 -86 254 -375q0 -389 -561 -389h-1182zM494 223h938q307 0 307 201q0 215 -269 215h-976v-416zM494 862h956q102 0 171 58.5t69 142.5q0 90 -61.5 143.5t-168.5 53.5h-966v-398z" />
<glyph unicode="C" horiz-adv-x="2142" d="M174 745q0 358 301 586q262 199 649 199q557 0 854 -385l-223 -80q-225 240 -631 240q-307 0 -500.5 -158t-193.5 -402q0 -252 191.5 -406.5t517.5 -154.5q393 0 618 244l211 -117q-160 -186 -361.5 -269t-482.5 -83q-393 0 -653 197q-297 225 -297 589z" />
<glyph unicode="D" horiz-adv-x="2181" d="M248 0v1483h938q387 0 613 -206t226 -552q0 -317 -239 -528q-223 -197 -553 -197h-985zM494 223h759q221 0 363.5 142.5t142.5 365.5q0 238 -152.5 383.5t-400.5 145.5h-712v-1037z" />
<glyph unicode="E" horiz-adv-x="1923" d="M248 0v1483h1495v-223h-1249v-379h868v-224h-868v-434h1306v-223h-1552z" />
<glyph unicode="F" horiz-adv-x="1783" d="M248 0v1483h1495v-223h-1249v-379h868v-224h-868v-657h-246z" />
<glyph unicode="G" horiz-adv-x="2236" d="M170 743q0 356 301 586q264 201 670 201q489 0 803 -359l-230 -114q-231 248 -594 248q-283 0 -473 -140q-221 -162 -221 -422q0 -250 190.5 -405.5t503.5 -155.5q492 0 639 383h-690v223h997v-22q0 -362 -259 -585.5t-687 -223.5q-391 0 -653 199q-297 225 -297 587z " />
<glyph unicode="H" horiz-adv-x="2174" d="M248 0v1483h246v-602h1187v602h246v-1483h-246v657h-1187v-657h-246z" />
<glyph unicode="I" horiz-adv-x="741" d="M248 0v1483h246v-1483h-246z" />
<glyph unicode="J" horiz-adv-x="1613" d="M84 467h250q16 -156 110.5 -222.5t290.5 -66.5q219 0 315.5 67.5t96.5 229.5v1008h246v-1008q0 -252 -171 -386t-501 -134q-299 0 -462 131t-175 381z" />
<glyph unicode="K" horiz-adv-x="1968" d="M248 0v1483h246v-768l1038 768h354l-758 -561l840 -922h-315l-713 780l-446 -329v-451h-246z" />
<glyph unicode="L" horiz-adv-x="1679" d="M248 0v1483h246v-1260h1144v-223h-1390z" />
<glyph unicode="M" horiz-adv-x="2533" d="M248 0v1483h305l713 -897l714 897h306v-1483h-246v1212h-6l-770 -966l-764 966h-6v-1212h-246z" />
<glyph unicode="N" horiz-adv-x="2179" d="M248 0v1483h305l1133 -1217v1217h245v-1483h-303l-1134 1217v-1217h-246z" />
<glyph unicode="O" horiz-adv-x="2244" d="M170 743q0 356 303 586q266 201 651 201q387 0 650 -201q301 -230 301 -586q0 -365 -299 -589q-262 -197 -652 -197q-393 0 -655 199q-299 225 -299 587zM426 743q0 -252 190.5 -406.5t507.5 -154.5q315 0 505 155.5t190 405.5q0 260 -222 422q-190 139 -473 140 q-309 0 -503.5 -159t-194.5 -403z" />
<glyph unicode="P" horiz-adv-x="1951" d="M248 0v1483h1175q227 0 360.5 -126t133.5 -337q0 -221 -138.5 -338t-402.5 -117h-882v-565h-246zM494 788h886q285 0 285 228q0 244 -301 244h-870v-472z" />
<glyph unicode="Q" horiz-adv-x="2244" d="M170 745q0 356 303 586q266 201 651 201t650 -201q301 -227 301 -586q0 -457 -453 -679l184 -203l-229 -74l-182 201q-137 -31 -271 -31q-389 0 -653 199q-301 227 -301 587zM426 745q0 -250 191.5 -405.5t506.5 -155.5q23 0 88 4l-159 179l233 69l172 -190 q360 145 361 499q0 260 -224 424q-190 139 -471 140q-283 0 -475 -140q-223 -162 -223 -424z" />
<glyph unicode="R" horiz-adv-x="2064" d="M248 0v1483h1169q233 0 366.5 -126t133.5 -341q0 -188 -109 -303q-100 -106 -276 -135l397 -578h-284l-402 565h-749v-565h-246zM494 788h886q285 0 285 228q0 244 -307 244h-864v-472z" />
<glyph unicode="S" horiz-adv-x="1923" d="M94 215l135 178q348 -213 750 -213q260 0 403 72q137 70 138 190q0 141 -181 189q-94 25 -508 51q-367 25 -514 98q-172 86 -172 289q0 209 196 330t552 121q479 0 803 -220l-150 -165q-330 168 -672 168q-227 0 -347.5 -53.5t-120.5 -147.5q0 -98 129 -144 q92 -33 301 -45q307 -20 405 -32q279 -37 412 -137.5t133 -284.5q0 -236 -209 -365t-600 -129q-567 0 -883 250z" />
<glyph unicode="T" horiz-adv-x="1744" d="M41 1260v223h1663v-223h-709v-1260h-245v1260h-709z" />
<glyph unicode="U" horiz-adv-x="2154" d="M238 479v1004h245v-944q0 -174 152.5 -266.5t443.5 -92.5t441.5 92.5t150.5 266.5v944h246v-1004q0 -231 -225 -375q-227 -149 -608 -149h-5q-383 0 -616 149q-225 145 -225 375z" />
<glyph unicode="V" horiz-adv-x="1900" d="M10 1483h275l665 -1237l666 1237h274l-798 -1483h-283z" />
<glyph unicode="W" horiz-adv-x="2428" d="M41 1483h274l373 -1241l371 1241h311l371 -1241l373 1241h274l-485 -1483h-318l-371 1239l-370 -1239h-314z" />
<glyph unicode="X" horiz-adv-x="1886" d="M27 0l755 752l-729 731h320l571 -578l569 578h320l-729 -731l756 -752h-320l-598 598l-596 -598h-319z" />
<glyph unicode="Y" horiz-adv-x="1888" d="M10 1483h305l631 -692l627 692h305l-811 -897v-586h-246v586z" />
<glyph unicode="Z" horiz-adv-x="1816" d="M102 0v223l1225 1037h-1206v223h1538v-223l-1225 -1037h1280v-223h-1612z" />
<glyph unicode="[" horiz-adv-x="921" d="M266 -289v1913h580v-115h-334v-1683h334v-115h-580z" />
<glyph unicode="\" horiz-adv-x="1110" d="M-59 1483h278l950 -1503h-280z" />
<glyph unicode="]" horiz-adv-x="907" d="M78 -174h334v1683h-334v115h579v-1913h-579v115z" />
<glyph unicode="^" horiz-adv-x="1609" d="M127 250l192 141q225 -184 531 -184q184 0 284.5 55t100.5 150q0 98 -110.5 157.5t-307.5 59.5q-231 0 -455 -113l-200 107l205 637h1024v-224h-856l-103 -282q209 72 406 71q299 0 473 -114.5t174 -298.5q0 -190 -171 -310t-460 -120q-430 0 -727 268z" />
<glyph unicode="_" horiz-adv-x="1024" d="M0 -340h1024v-143h-1024v143z" />
<glyph unicode="`" horiz-adv-x="1024" d="M262 1710h238l141 -340h-125z" />
<glyph unicode="a" horiz-adv-x="1730" d="M27 0l686 1260h305l686 -1260h-270l-146 270h-846l-145 -270h-270zM565 494h600l-299 557z" />
<glyph unicode="b" horiz-adv-x="1875" d="M215 0v1260h1036q201 0 315.5 -96.5t114.5 -256.5q0 -159 -149 -256q201 -102 201 -311q0 -340 -494 -340h-1024zM461 223h778q117 0 181.5 39t64.5 105q0 157 -222 157h-3h-799v-301zM461 748h794q86 0 136.5 39.5t50.5 107.5q0 141 -178 141h-803v-288z" />
<glyph unicode="c" horiz-adv-x="1851" d="M139 635q0 305 264 498q228 167 560 167h4q468 0 755 -344l-225 -77q-202 200 -511 200h-3q-268 0 -428 -124t-160 -320q0 -203 160 -326t432 -123q315 0 514 207l211 -112q-279 -313 -731 -314q-377 0 -609.5 187.5t-232.5 480.5z" />
<glyph unicode="d" horiz-adv-x="1884" d="M215 0v1260h815q332 0 532.5 -174.5t200.5 -446.5q0 -248 -211 -475q-59 -66 -188 -113q-141 -51 -293 -51h-856zM461 223h626q180 0 296 113t116 287q0 186 -123 299.5t-327 113.5h-588v-813z" />
<glyph unicode="e" horiz-adv-x="1673" d="M215 0v1260h1309v-224h-1063v-270h739v-223h-739v-320h1110v-223h-1356z" />
<glyph unicode="f" horiz-adv-x="1574" d="M215 0v1260h1309v-224h-1063v-270h739v-223h-739v-543h-246z" />
<glyph unicode="g" horiz-adv-x="1927" d="M139 633q0 307 264 500q231 170 578 170q418 0 692 -293l-231 -115q-193 184 -475 184q-250 0 -412 -127t-162 -319q0 -199 158 -324t416 -125q387 0 514 283h-568v223h875v-39q0 -307 -224.5 -497.5t-596.5 -190.5q-336 0 -564 166q-264 193 -264 504z" />
<glyph unicode="h" horiz-adv-x="1894" d="M215 0v1260h246v-494h973v494h245v-1260h-245v543h-973v-543h-246z" />
<glyph unicode="i" horiz-adv-x="675" d="M215 0v1260h246v-1260h-246z" />
<glyph unicode="j" horiz-adv-x="1433" d="M70 422h247q14 -131 89 -185.5t235 -54.5q176 0 254 51.5t78 176.5v850h246v-850q0 -217 -149.5 -332t-438.5 -115q-532 0 -561 459z" />
<glyph unicode="k" horiz-adv-x="1738" d="M215 0v1260h246v-617l858 617h362l-671 -484l727 -776h-318l-600 639l-358 -258v-381h-246z" />
<glyph unicode="l" horiz-adv-x="1484" d="M215 0v1260h246v-1037h973v-223h-1219z" />
<glyph unicode="m" horiz-adv-x="2197" d="M215 0v1260h369l514 -713l516 713h368v-1260h-245l-6 1036l-633 -858l-631 866l-6 -8v-1036h-246z" />
<glyph unicode="n" horiz-adv-x="1898" d="M215 0v1260h367l856 -1051v1051h245v-1260h-366l-856 1051v-1051h-246z" />
<glyph unicode="o" d="M139 633q0 307 267 500q233 170 563 170q328 0 561 -170q266 -195 266 -500q0 -309 -264 -504q-225 -166 -563 -166t-566 166q-264 193 -264 504zM393 633q0 -201 158 -325t418 -124q258 0 414.5 124t156.5 325q0 195 -159.5 320.5t-411.5 125.5q-254 0 -415 -127 t-161 -319z" />
<glyph unicode="p" horiz-adv-x="1712" d="M215 0v1260h1018q201 0 319.5 -109t118.5 -291q0 -190 -124 -293.5t-355 -103.5h-731v-463h-246zM461 686h735q223 0 223 170q0 180 -237 180h-721v-350z" />
<glyph unicode="q" d="M139 633q0 307 264 502q231 170 566 170q332 0 563 -170q264 -195 264 -502q0 -379 -373 -570l158 -172l-233 -71l-156 166q-123 -23 -223 -23q-336 0 -566 168q-264 193 -264 502zM393 633q0 -201 157 -325t419 -124h37l-140 148l236 69l155 -163q283 121 283 395 q0 195 -159.5 321.5t-411.5 126.5q-254 0 -415 -127t-161 -321z" />
<glyph unicode="r" horiz-adv-x="1830" d="M215 0v1260h1018q201 0 319.5 -109t118.5 -291q0 -313 -313 -383l340 -477h-283l-330 463h-624v-463h-246zM461 686h735q223 0 223 170q0 180 -237 180h-721v-350z" />
<glyph unicode="s" horiz-adv-x="1667" d="M92 193l133 174q260 -182 639 -183q213 0 330 54.5t117 144.5q0 100 -144 141q-80 23 -247 31q-262 12 -322 18q-233 23 -344 101t-111 227q0 180 177.5 285.5t496.5 105.5q426 0 690 -184l-151 -160q-246 129 -535 129q-420 0 -420 -149q0 -88 158 -115q215 -18 430 -39 q309 -31 441 -110q145 -88 145 -269q0 -203 -181.5 -313.5t-525.5 -110.5q-485 0 -776 222z" />
<glyph unicode="t" horiz-adv-x="1552" d="M51 1036v224h1450v-224h-602v-1036h-246v1036h-602z" />
<glyph unicode="u" horiz-adv-x="1865" d="M201 414v846h245v-797q0 -279 488 -279q485 0 485 279v797h246v-846q0 -199 -198.5 -325t-532.5 -126q-336 0 -534.5 126t-198.5 325z" />
<glyph unicode="v" horiz-adv-x="1695" d="M10 1260h273l565 -1047l565 1047h273l-697 -1260h-282z" />
<glyph unicode="w" horiz-adv-x="2129" d="M41 1260h272l303 -1047l302 1047h294l301 -1047l304 1047h272l-428 -1260h-295l-301 1053l-301 -1053h-295z" />
<glyph unicode="x" horiz-adv-x="1675" d="M27 0l655 639l-633 621h309l480 -476l479 476h309l-633 -621l656 -639h-310l-501 494l-502 -494h-309z" />
<glyph unicode="y" horiz-adv-x="1695" d="M10 1260h299l539 -574l538 574h300l-717 -764v-496h-246v496z" />
<glyph unicode="z" horiz-adv-x="1570" d="M82 0v223l1008 813h-994v224h1346v-224l-1010 -813h1057v-223h-1407z" />
<glyph unicode="{" horiz-adv-x="845" d="M45 668q223 98 223 258v374q0 178 99 252q92 72 311 72h65v-115q-229 0 -229 -237q0 -16 2 -74v-96q0 -342 -115 -430v-4q117 -88 117 -420q0 -29 -2 -96.5t-2 -104.5q0 -221 223 -221h6v-115q-281 0 -380 77t-99 302q0 47 2 126t2 112q0 184 -82 256q-35 31 -141 84z " />
<glyph unicode="|" horiz-adv-x="1607" d="M129 623q0 219 125 381q213 276 604 276q305 0 578 -246l-183 -135q-152 154 -399 154q-205 0 -341 -119t-136 -297v-27q199 195 502 195q262 0 432 -115t170 -282q0 -188 -168 -308t-443 -120q-334 0 -537.5 179t-203.5 464zM436 401q111 -197 434 -196q168 0 264.5 52 t96.5 136q0 88 -98.5 146.5t-262.5 58.5q-282 0 -434 -197z" />
<glyph unicode="}" horiz-adv-x="829" d="M80 -174h6q223 0 223 233q0 29 -2 90.5t-2 94.5q0 340 117 424v4q-115 84 -115 428q0 16 2 76v102q0 231 -223 231h-6v115h65q219 0 314.5 -72.5t95.5 -251.5v-374q0 -160 223 -258q-133 -55 -183 -138.5t-50 -240.5q0 -35 7 -101.5t7 -97.5q0 -221 -98.5 -300 t-368.5 -79h-12v115z" />
<glyph unicode="~" horiz-adv-x="1462" d="M70 1036v224h1300v-224l-831 -1036h-287l833 1036h-1015z" />
<glyph unicode="&#xa1;" horiz-adv-x="731" d="M217 1260v223h318v-223h-318zM221 0v113l58 979h196l57 -1092h-311z" />
<glyph unicode="&#xa2;" horiz-adv-x="1617" d="M154 741q0 199 140 332t406 184v226h246v-230q315 -36 518 -282l-217 -74q-125 123 -301 147v-600q180 18 305 146l203 -105q-201 -229 -508 -258v-227h-246v227q-547 94 -546 514zM424 741q0 -227 276 -299v600q-276 -76 -276 -301z" />
<glyph unicode="&#xa3;" horiz-adv-x="1501" d="M70 674v196h180q-23 86 -23 150q0 221 169 352t462 131q297 0 545 -196l-123 -187q-199 162 -444 162q-362 0 -363 -268q0 -57 29 -144h534v-196h-485q12 -63 12 -121q0 -186 -117 -293q74 6 121 6q104 0 281.5 -29.5t249.5 -29.5q119 0 231 59l113 -203 q-168 -76 -299 -75q-76 0 -254 32.5t-281 32.5q-193 0 -385 -102l-139 221q246 195 246 403q0 37 -17 99h-243z" />
<glyph unicode="&#xa4;" horiz-adv-x="1640" d="M135 627q0 270 207 467q193 184 481 184q287 0 480 -184q202 -195 202 -467q0 -168 -79.5 -311.5t-223.5 -229.5q-176 -106 -383 -106t-383 106q-141 86 -221 229.5t-80 311.5zM383 627q0 -184 124 -302t316 -118q193 0 313.5 118t120.5 302q0 186 -122.5 306t-315.5 120 t-314.5 -119t-121.5 -307z" />
<glyph unicode="&#xa5;" horiz-adv-x="1933" d="M25 1483h305l631 -692l626 692h305l-553 -613h201v-196h-379l-80 -88v-86h459v-197h-459v-303h-245v303h-459v197h459v86l-80 88h-379v196h201z" />
<glyph unicode="&#xa6;" horiz-adv-x="1024" d="M438 -350v758h150v-758h-150zM438 674v758h150v-758h-150z" />
<glyph unicode="&#xa7;" horiz-adv-x="1851" d="M141 92l138 180q315 -197 653 -196q213 0 329.5 57t116.5 154q0 109 -143 149q-84 25 -252 33q-291 16 -328 20q-240 23 -351 102t-111 230q0 162 137 250q-111 90 -111 229q0 184 172 291t486 107q453 0 712 -199l-145 -156q-289 145 -584 146q-188 0 -290.5 -43 t-102.5 -117q0 -76 111 -112q70 -23 208 -33t277 -21q317 -33 450 -110q147 -88 148 -273q0 -158 -125 -243q98 -100 98 -236q0 -207 -183 -319.5t-527 -112.5q-496 0 -783 223zM440 850q0 -117 277 -145q137 -8 276 -19q190 -12 340 -47q72 53 72 127q0 129 -213 168 q-82 14 -277 22q-209 6 -329 25q-145 -41 -146 -131z" />
<glyph unicode="&#xa8;" horiz-adv-x="1024" d="M178 1528q0 53 38 92t91 39t92 -39t39 -92q0 -51 -39 -89t-92 -38t-91 37t-38 90zM590 1528q0 53 38 92t91 39t92 -39t39 -92q0 -51 -39 -89t-92 -38t-91 37t-38 90z" />
<glyph unicode="&#xa9;" horiz-adv-x="1705" d="M119 725q0 303 219 522q213 213 514 213q309 0 522 -213t213 -522q0 -305 -211 -516q-219 -219 -524 -219q-299 0 -516 217t-217 518zM207 725q0 -264 190.5 -454.5t454.5 -190.5q270 0 463 192q186 187 186 453q0 268 -187.5 457.5t-461.5 189.5q-266 0 -453 -186 q-193 -193 -192 -461zM465 721q0 211 107.5 334t287.5 123q264 0 334 -267h-129q-55 164 -201 164q-256 0 -256 -352q0 -164 68.5 -254t187.5 -90q156 0 211 182h129q-70 -287 -354 -287q-176 0 -280.5 120t-104.5 327z" />
<glyph unicode="&#xaa;" horiz-adv-x="1142" d="M0 637l465 850h213l465 -850h-203l-96 178h-545l-96 -178h-203zM391 983h361l-181 336z" />
<glyph unicode="&#xab;" horiz-adv-x="1482" d="M154 657l346 334h299l-332 -334l326 -331h-301zM684 657l348 334h297l-330 -334l326 -331h-301z" />
<glyph unicode="&#xac;" horiz-adv-x="1628" d="M115 362q0 195 258 302q-172 98 -172 247q0 170 159.5 266.5t450.5 96.5q295 0 455.5 -96.5t160.5 -266.5q0 -149 -172 -247q258 -106 258 -302q0 -180 -180 -281t-518 -101t-519 101t-181 281zM385 379q0 -172 430 -172q428 0 428 172q0 168 -428 168q-430 0 -430 -168z M463 909q0 -158 352 -157q350 -1 350 157q0 143 -350 144q-352 0 -352 -144z" />
<glyph unicode="&#xad;" horiz-adv-x="1087" d="M123 543v223h842v-223h-842z" />
<glyph unicode="&#xae;" horiz-adv-x="776" d="M72 1176q0 125 93 217t222 92q135 0 226.5 -91.5t91.5 -224.5q0 -129 -94.5 -222t-229.5 -93q-129 0 -219 93t-90 229zM121 1169q0 -113 77.5 -191.5t188.5 -78.5q115 0 192.5 78.5t77.5 191.5t-76.5 190t-193.5 77q-113 0 -189.5 -77t-76.5 -190zM264 997v342h121 q145 0 145 -100q0 -63 -73 -90l75 -152h-81l-66 142h-49v-142h-72zM336 1186h49q68 0 68 49t-72 49h-45v-98z" />
<glyph unicode="&#xaf;" horiz-adv-x="1024" d="M160 1436v151h702v-151h-702z" />
<glyph unicode="&#xb0;" horiz-adv-x="1089" d="M174 1145q0 143 113 252q104 100 260 100q154 0 258 -100q113 -109 113 -252t-113 -252q-104 -100 -258 -100t-260 100q-113 106 -113 252zM322 1145q0 -88 65.5 -150.5t159.5 -62.5t158.5 62.5t64.5 150.5q0 90 -65.5 153.5t-157.5 63.5q-94 0 -159.5 -63.5 t-65.5 -153.5z" />
<glyph unicode="&#xb1;" horiz-adv-x="1705" d="M254 29v141h1198v-141h-1198zM254 713v139h528v340h142v-340h528v-139h-528v-340h-142v340h-528z" />
<glyph unicode="&#xb2;" horiz-adv-x="1132" d="M41 592q18 330 408 440q115 29 227 55q160 51 160 134q0 63 -70 101t-195 38q-211 0 -383 -125l-102 98q223 160 489 160q193 0 315 -80t122 -203q0 -176 -258 -241q-96 -20 -283 -68q-174 -53 -238 -176h803v-133h-995z" />
<glyph unicode="&#xb3;" horiz-adv-x="1163" d="M20 760l109 98q172 -145 414 -145q328 0 327 147q0 133 -389 133h-78v119h150q272 0 272 133q0 115 -266 115q-201 0 -375 -100l-92 92q225 141 467 141q205 0 319.5 -65.5t114.5 -176.5q1 -131 -149 -190q199 -63 198 -219q0 -123 -135 -193.5t-383 -70.5 q-315 0 -504 182z" />
<glyph unicode="&#xb4;" horiz-adv-x="1024" d="M387 1370l141 340h238l-254 -340h-125z" />
<glyph unicode="&#xb6;" d="M102 1020q0 211 133.5 337t360.5 126h1034v-1821h-246v903h-266v-903h-246v903h-229q-264 0 -402.5 117t-138.5 338zM354 1016q0 -227 285 -228h233v472h-217q-301 0 -301 -244zM1118 788h266v472h-266v-472z" />
<glyph unicode="&#xb7;" horiz-adv-x="952" d="M317 543v223h318v-223h-318z" />
<glyph unicode="&#xb8;" horiz-adv-x="1024" d="M258 -383l39 74q66 -25 106 -25q45 0 75 23.5t30 54.5q0 49 -51 49q-31 0 -56 -35l-63 29q53 98 121 227h123l-68 -108q164 -16 164 -156q0 -76 -60.5 -124t-162.5 -48q-98 0 -197 39z" />
<glyph unicode="&#xb9;" horiz-adv-x="518" d="M37 1272v129q88 23 160 80h159v-889h-161v741z" />
<glyph unicode="&#xba;" horiz-adv-x="1245" d="M82 1067q0 186 152.5 312t388.5 126t388 -125t152 -313q0 -193 -150.5 -315.5t-389.5 -122.5q-238 0 -389.5 124t-151.5 314zM268 1067q0 -123 97.5 -198.5t257.5 -75.5t257 76.5t97 197.5q0 119 -98.5 195.5t-255.5 76.5q-158 0 -256.5 -76.5t-98.5 -195.5z" />
<glyph unicode="&#xbb;" horiz-adv-x="1482" d="M154 991h297l348 -334l-340 -331h-301l325 331zM684 991h299l346 -334l-338 -331h-301l326 331z" />
<glyph unicode="&#xbc;" horiz-adv-x="2142" d="M-8 -20l1327 1503h278l-1325 -1503h-280zM37 1286v119q82 25 149 76h154v-830h-154v692zM1128 164v125l619 540h151v-540h213v-125h-213v-164h-155v164h-615zM1292 289h451v395z" />
<glyph unicode="&#xbd;" horiz-adv-x="2177" d="M-8 -20l1327 1503h278l-1325 -1503h-280zM37 1286v119q82 25 149 76h154v-830h-154v692zM1137 0q14 307 387 412q115 25 303 84q66 33 65 90q0 59 -66.5 95t-185.5 36q-201 0 -364 -117l-98 92q213 147 467 148q184 0 299.5 -74t115.5 -188q0 -164 -245 -228 q-92 -18 -185 -39q-111 -25 -178 -57q-90 -47 -133 -129h766v-125h-948z" />
<glyph unicode="&#xbe;" horiz-adv-x="2758" d="M18 807l105 92q168 -135 395 -135q313 0 313 139q0 123 -372 123h-74v111h143q260 0 260 123q0 109 -253 108q-193 0 -359 -92l-88 84q213 131 444 131q197 0 306.5 -60.5t109.5 -164.5q0 -120 -143 -179q190 -55 190 -202q0 -115 -129 -180.5t-366 -65.5 q-301 0 -482 168zM608 -20l1327 1503h279l-1325 -1503h-281zM1745 164v125l618 540h152v-540h213v-125h-213v-164h-156v164h-614zM1909 289h450v395z" />
<glyph unicode="&#xbf;" horiz-adv-x="1488" d="M94 428q0 145 72 226t237 128q104 25 279 82q123 59 131 228h199q2 -27 2 -50q0 -154 -78 -245.5t-250 -153.5q-213 -76 -237 -88q-90 -49 -91 -135q0 -213 406 -213q326 0 510 201l170 -134q-272 -285 -680 -284q-313 0 -491.5 118.5t-178.5 319.5zM750 1260v223h317 v-223h-317z" />
<glyph unicode="&#xc0;" horiz-adv-x="1939" d="M31 0l784 1483h309l785 -1483h-269l-172 332h-997l-172 -332h-268zM592 555h756l-377 717zM721 1937h238l141 -340h-125z" />
<glyph unicode="&#xc1;" horiz-adv-x="1939" d="M31 0l784 1483h309l785 -1483h-269l-172 332h-997l-172 -332h-268zM592 555h756l-377 717zM846 1597l141 340h238l-254 -340h-125z" />
<glyph unicode="&#xc2;" horiz-adv-x="1939" d="M31 0l784 1483h309l785 -1483h-269l-172 332h-997l-172 -332h-268zM576 1595l313 340h164l313 -340h-209l-186 203l-186 -203h-209zM592 555h756l-377 717z" />
<glyph unicode="&#xc3;" horiz-adv-x="1939" d="M31 0l784 1483h309l785 -1483h-269l-172 332h-997l-172 -332h-268zM592 555h756l-377 717zM615 1702q135 160 221 159q51 0 139 -39t123 -39q53 0 111 95l110 -76q-92 -172 -211 -172q-61 0 -151 38t-113 38q-49 0 -109 -99z" />
<glyph unicode="&#xc4;" horiz-adv-x="1939" d="M31 0l784 1483h309l785 -1483h-269l-172 332h-997l-172 -332h-268zM592 555h756l-377 717zM637 1755q0 53 38 92t91 39t92 -39t39 -92q0 -51 -39 -89t-92 -38t-91 37t-38 90zM1049 1755q0 53 38 92t91 39t92 -39t39 -92q0 -51 -39 -89t-92 -38t-91 37t-38 90z" />
<glyph unicode="&#xc5;" horiz-adv-x="1939" d="M31 0l784 1483h309l785 -1483h-269l-172 332h-997l-172 -332h-268zM592 555h756l-377 717zM741 1784q0 80 65.5 135t164.5 55q98 0 164.5 -55t66.5 -135t-65.5 -134.5t-165.5 -54.5q-98 0 -164 54.5t-66 134.5zM864 1784q0 -84 107 -84q47 0 77.5 24.5t30.5 59.5 t-31.5 60.5t-76.5 25.5q-47 0 -77 -25.5t-30 -60.5z" />
<glyph unicode="&#xc6;" horiz-adv-x="2871" d="M31 0l1046 1483h1614v-223h-1249v-379h868v-224h-868v-434h1306v-223h-1552v332h-664l-231 -332h-270zM692 555h504v715z" />
<glyph unicode="&#xc7;" horiz-adv-x="2142" d="M174 745q0 358 301 586q262 199 649 199q559 0 854 -385l-223 -80q-225 240 -631 240q-307 0 -500.5 -158t-193.5 -402q0 -252 191.5 -406.5t517.5 -154.5q393 0 618 244l211 -117q-299 -352 -817 -352h-10l-33 -53q164 -16 164 -156q0 -76 -60.5 -124t-162.5 -48 q-98 0 -197 39l39 74q66 -25 106 -25q45 0 75 23.5t30 54.5q0 49 -51 49q-31 0 -56 -35l-63 29q27 47 94 176q-406 45 -629 253t-223 529z" />
<glyph unicode="&#xc8;" horiz-adv-x="1923" d="M248 0v1483h1495v-223h-1249v-379h868v-224h-868v-434h1306v-223h-1552zM731 1937h238l141 -340h-125z" />
<glyph unicode="&#xc9;" horiz-adv-x="1923" d="M248 0v1483h1495v-223h-1249v-379h868v-224h-868v-434h1306v-223h-1552zM856 1597l141 340h238l-254 -340h-125z" />
<glyph unicode="&#xca;" horiz-adv-x="1923" d="M248 0v1483h1495v-223h-1249v-379h868v-224h-868v-434h1306v-223h-1552zM586 1595l313 340h164l313 -340h-209l-186 203l-186 -203h-209z" />
<glyph unicode="&#xcb;" horiz-adv-x="1923" d="M248 0v1483h1495v-223h-1249v-379h868v-224h-868v-434h1306v-223h-1552zM647 1755q0 53 38 92t91 39t92 -39t39 -92q0 -51 -39 -89t-92 -38t-91 37t-38 90zM1059 1755q0 53 38 92t91 39t92 -39t39 -92q0 -51 -39 -89t-92 -38t-91 37t-38 90z" />
<glyph unicode="&#xcc;" horiz-adv-x="741" d="M121 1937h238l141 -340h-125zM248 0v1483h246v-1483h-246z" />
<glyph unicode="&#xcd;" horiz-adv-x="741" d="M246 1597l141 340h238l-254 -340h-125zM248 0v1483h246v-1483h-246z" />
<glyph unicode="&#xce;" horiz-adv-x="741" d="M-24 1595l313 340h164l313 -340h-209l-186 203l-186 -203h-209zM248 0v1483h246v-1483h-246z" />
<glyph unicode="&#xcf;" horiz-adv-x="741" d="M37 1755q0 53 38 92t91 39t92 -39t39 -92q0 -51 -39 -89t-92 -38t-91 37t-38 90zM248 0v1483h246v-1483h-246zM449 1755q0 53 38 92t91 39t92 -39t39 -92q0 -51 -39 -89t-92 -38t-91 37t-38 90z" />
<glyph unicode="&#xd0;" horiz-adv-x="2181" d="M100 664v223h148v596h938q387 0 613 -206t226 -552q0 -317 -239 -528q-223 -197 -553 -197h-985v664h-148zM494 223h759q221 0 363.5 142.5t142.5 365.5q0 238 -152.5 383.5t-400.5 145.5h-712v-373h686v-223h-686v-441z" />
<glyph unicode="&#xd1;" horiz-adv-x="2179" d="M248 0v1483h305l1133 -1217v1217h245v-1483h-303l-1134 1217v-1217h-246zM734 1702q135 160 221 159q51 0 139 -39t123 -39q53 0 111 95l110 -76q-92 -172 -211 -172q-61 0 -151 38t-113 38q-49 0 -109 -99z" />
<glyph unicode="&#xd2;" horiz-adv-x="2244" d="M170 743q0 356 303 586q266 201 651 201q387 0 650 -201q301 -230 301 -586q0 -365 -299 -589q-262 -197 -652 -197q-393 0 -655 199q-299 225 -299 587zM426 743q0 -252 190.5 -406.5t507.5 -154.5q315 0 505 155.5t190 405.5q0 260 -222 422q-190 139 -473 140 q-309 0 -503.5 -159t-194.5 -403zM872 1937h238l141 -340h-125z" />
<glyph unicode="&#xd3;" horiz-adv-x="2244" d="M170 743q0 356 303 586q266 201 651 201q387 0 650 -201q301 -230 301 -586q0 -365 -299 -589q-262 -197 -652 -197q-393 0 -655 199q-299 225 -299 587zM426 743q0 -252 190.5 -406.5t507.5 -154.5q315 0 505 155.5t190 405.5q0 260 -222 422q-190 139 -473 140 q-309 0 -503.5 -159t-194.5 -403zM997 1597l141 340h238l-254 -340h-125z" />
<glyph unicode="&#xd4;" horiz-adv-x="2244" d="M170 743q0 356 303 586q266 201 651 201q387 0 650 -201q301 -230 301 -586q0 -365 -299 -589q-262 -197 -652 -197q-393 0 -655 199q-299 225 -299 587zM426 743q0 -252 190.5 -406.5t507.5 -154.5q315 0 505 155.5t190 405.5q0 260 -222 422q-190 139 -473 140 q-309 0 -503.5 -159t-194.5 -403zM727 1595l313 340h164l313 -340h-209l-186 203l-186 -203h-209z" />
<glyph unicode="&#xd5;" horiz-adv-x="2244" d="M170 743q0 356 303 586q266 201 651 201q387 0 650 -201q301 -230 301 -586q0 -365 -299 -589q-262 -197 -652 -197q-393 0 -655 199q-299 225 -299 587zM426 743q0 -252 190.5 -406.5t507.5 -154.5q315 0 505 155.5t190 405.5q0 260 -222 422q-190 139 -473 140 q-309 0 -503.5 -159t-194.5 -403zM766 1702q135 160 221 159q51 0 139 -39t123 -39q53 0 111 95l110 -76q-92 -172 -211 -172q-61 0 -151 38t-113 38q-49 0 -109 -99z" />
<glyph unicode="&#xd6;" horiz-adv-x="2244" d="M170 743q0 356 303 586q266 201 651 201q387 0 650 -201q301 -230 301 -586q0 -365 -299 -589q-262 -197 -652 -197q-393 0 -655 199q-299 225 -299 587zM426 743q0 -252 190.5 -406.5t507.5 -154.5q315 0 505 155.5t190 405.5q0 260 -222 422q-190 139 -473 140 q-309 0 -503.5 -159t-194.5 -403zM788 1755q0 53 38 92t91 39t92 -39t39 -92q0 -51 -39 -89t-92 -38t-91 37t-38 90zM1200 1755q0 53 38 92t91 39t92 -39t39 -92q0 -51 -39 -89t-92 -38t-91 37t-38 90z" />
<glyph unicode="&#xd7;" horiz-adv-x="1705" d="M293 141l469 469l-469 469l98 99l469 -469l469 469l98 -99l-469 -469l469 -469l-98 -96l-469 467l-469 -467z" />
<glyph unicode="&#xd8;" horiz-adv-x="2244" d="M170 743q0 356 303 586q266 201 651 201q223 0 453 -90l125 151h192l-182 -221q362 -229 363 -627q0 -362 -299 -589q-258 -197 -652 -197q-246 0 -491 102l-125 -149h-195l187 225q-330 225 -330 608zM426 743q0 -254 221 -428l776 940q-150 49 -299 50 q-281 0 -475 -140q-223 -160 -223 -422zM782 244q166 -61 342 -62q315 0 505 156t190 405q0 270 -256 445z" />
<glyph unicode="&#xd9;" horiz-adv-x="2154" d="M238 479v1004h245v-944q0 -174 152.5 -266.5t443.5 -92.5t441.5 92.5t150.5 266.5v944h246v-1004q0 -231 -225 -375q-229 -150 -613 -149q-383 0 -616 149q-225 145 -225 375zM827 1937h238l141 -340h-125z" />
<glyph unicode="&#xda;" horiz-adv-x="2154" d="M238 479v1004h245v-944q0 -174 152.5 -266.5t443.5 -92.5t441.5 92.5t150.5 266.5v944h246v-1004q0 -231 -225 -375q-229 -150 -613 -149q-383 0 -616 149q-225 145 -225 375zM952 1597l141 340h238l-254 -340h-125z" />
<glyph unicode="&#xdb;" horiz-adv-x="2154" d="M238 479v1004h245v-944q0 -174 152.5 -266.5t443.5 -92.5t441.5 92.5t150.5 266.5v944h246v-1004q0 -231 -225 -375q-229 -150 -613 -149q-383 0 -616 149q-225 145 -225 375zM682 1595l313 340h164l313 -340h-209l-186 203l-186 -203h-209z" />
<glyph unicode="&#xdc;" horiz-adv-x="2154" d="M238 479v1004h245v-944q0 -174 152.5 -266.5t443.5 -92.5t441.5 92.5t150.5 266.5v944h246v-1004q0 -231 -225 -375q-229 -150 -613 -149q-383 0 -616 149q-225 145 -225 375zM743 1755q0 53 38 92t91 39t92 -39t39 -92q0 -51 -39 -89t-92 -38t-91 37t-38 90zM1155 1755 q0 53 38 92t91 39t92 -39t39 -92q0 -51 -39 -89t-92 -38t-91 37t-38 90z" />
<glyph unicode="&#xdd;" horiz-adv-x="1888" d="M10 1483h305l631 -692l627 692h305l-811 -897v-586h-246v586zM819 1597l141 340h238l-254 -340h-125z" />
<glyph unicode="&#xde;" horiz-adv-x="1951" d="M248 0v1483h246v-223h929q227 0 360.5 -126t133.5 -337q0 -221 -138.5 -338t-402.5 -117h-882v-342h-246zM494 565h886q285 0 285 228q0 244 -301 243h-870v-471z" />
<glyph unicode="&#xdf;" horiz-adv-x="3241" d="M92 193l133 174q260 -182 639 -183q213 0 330 54.5t117 144.5q0 100 -144 141q-80 23 -247 31q-262 12 -322 18q-233 23 -344 101t-111 227q0 180 177.5 285.5t496.5 105.5q426 0 690 -184l-151 -160q-246 129 -535 129q-420 0 -420 -149q0 -88 158 -115q215 -18 430 -39 q309 -31 441 -110q145 -88 145 -269q0 -203 -181.5 -313.5t-525.5 -110.5q-485 0 -776 222zM1667 193l133 174q260 -182 639 -183q213 0 330 54.5t117 144.5q0 100 -144 141q-80 23 -248 31q-262 12 -321 18q-233 23 -344 101t-111 227q0 180 176.5 285.5t495.5 105.5 q424 0 690 -184l-149 -160q-246 129 -537 129q-418 0 -418 -149q0 -88 156 -115q217 -18 432 -39q307 -31 440 -110q145 -88 146 -269q0 -201 -182.5 -312.5t-524.5 -111.5q-485 0 -776 222z" />
<glyph unicode="&#xe0;" horiz-adv-x="1730" d="M27 0l686 1260h305l686 -1260h-270l-146 270h-846l-145 -270h-270zM565 494h600l-299 557zM616 1710h238l141 -340h-125z" />
<glyph unicode="&#xe1;" horiz-adv-x="1730" d="M27 0l686 1260h305l686 -1260h-270l-146 270h-846l-145 -270h-270zM565 494h600l-299 557zM741 1370l141 340h238l-254 -340h-125z" />
<glyph unicode="&#xe2;" horiz-adv-x="1730" d="M27 0l686 1260h305l686 -1260h-270l-146 270h-846l-145 -270h-270zM471 1368l313 340h164l313 -340h-209l-186 203l-186 -203h-209zM565 494h600l-299 557z" />
<glyph unicode="&#xe3;" horiz-adv-x="1730" d="M27 0l686 1260h305l686 -1260h-270l-146 270h-846l-145 -270h-270zM510 1475q135 160 221 159q51 0 139 -39t123 -39q53 0 111 95l110 -76q-92 -172 -211 -172q-61 0 -151 38t-113 38q-49 0 -109 -99zM565 494h600l-299 557z" />
<glyph unicode="&#xe4;" horiz-adv-x="1730" d="M27 0l686 1260h305l686 -1260h-270l-146 270h-846l-145 -270h-270zM532 1528q0 53 38 92t91 39t92 -39t39 -92q0 -51 -39 -89t-92 -38t-91 37t-38 90zM565 494h600l-299 557zM944 1528q0 53 38 92t91 39t92 -39t39 -92q0 -51 -39 -89t-92 -38t-91 37t-38 90z" />
<glyph unicode="&#xe5;" horiz-adv-x="1730" d="M27 0l686 1260h305l686 -1260h-270l-146 270h-846l-145 -270h-270zM565 494h600l-299 557zM637 1563q0 80 65.5 135t163.5 55t165 -55t67 -135t-66.5 -134.5t-165.5 -54.5q-98 0 -163.5 54.5t-65.5 134.5zM758 1563q0 -35 30.5 -59.5t77.5 -24.5q45 0 77 24.5t32 59.5 t-31 60.5t-78 25.5t-77.5 -26t-30.5 -60z" />
<glyph unicode="&#xe6;" horiz-adv-x="2492" d="M27 0l915 1260h1401v-224h-1063v-270h739v-223h-739v-320h1110v-223h-1356v270h-561l-201 -270h-245zM635 494h399v548z" />
<glyph unicode="&#xe7;" horiz-adv-x="1851" d="M139 635q0 305 264 498q229 168 564 167q462 0 755 -344l-225 -77q-201 201 -530 200q-254 0 -413 -125t-159 -319q0 -199 157 -324t415 -125q334 0 534 207l211 -112q-272 -311 -711 -314l-38 -61q164 -16 163 -156q0 -76 -60 -124t-163 -48q-98 0 -196 39l38 74 q66 -25 107 -25q45 0 74.5 23.5t29.5 54.5q0 49 -51 49q-31 0 -55 -35l-64 29q47 82 99 182q-354 37 -550 215t-196 451z" />
<glyph unicode="&#xe8;" horiz-adv-x="1673" d="M215 0v1260h1309v-224h-1063v-270h739v-223h-739v-320h1110v-223h-1356zM600 1710h238l141 -340h-125z" />
<glyph unicode="&#xe9;" horiz-adv-x="1673" d="M215 0v1260h1309v-224h-1063v-270h739v-223h-739v-320h1110v-223h-1356zM725 1370l141 340h238l-254 -340h-125z" />
<glyph unicode="&#xea;" horiz-adv-x="1673" d="M215 0v1260h1309v-224h-1063v-270h739v-223h-739v-320h1110v-223h-1356zM455 1368l313 340h164l313 -340h-209l-186 203l-186 -203h-209z" />
<glyph unicode="&#xeb;" horiz-adv-x="1673" d="M215 0v1260h1309v-224h-1063v-270h739v-223h-739v-320h1110v-223h-1356zM516 1528q0 53 38 92t91 39t92 -39t39 -92q0 -51 -39 -89t-92 -38t-91 37t-38 90zM928 1528q0 53 38 92t91 39t92 -39t39 -92q0 -51 -39 -89t-92 -38t-91 37t-38 90z" />
<glyph unicode="&#xec;" horiz-adv-x="675" d="M88 1710h238l141 -340h-125zM215 0v1260h246v-1260h-246z" />
<glyph unicode="&#xed;" horiz-adv-x="675" d="M213 1370l141 340h238l-254 -340h-125zM215 0v1260h246v-1260h-246z" />
<glyph unicode="&#xee;" horiz-adv-x="675" d="M-57 1368l313 340h164l313 -340h-209l-186 203l-186 -203h-209zM215 0v1260h246v-1260h-246z" />
<glyph unicode="&#xef;" horiz-adv-x="675" d="M4 1528q0 53 38 92t91 39t92 -39t39 -92q0 -51 -39 -89t-92 -38t-91 37t-38 90zM215 0v1260h246v-1260h-246zM416 1528q0 53 38 92t91 39t92 -39t39 -92q0 -51 -39 -89t-92 -38t-91 37t-38 90z" />
<glyph unicode="&#xf0;" horiz-adv-x="1884" d="M111 528v224h102v508h815q332 0 532.5 -174.5t200.5 -446.5t-213 -475q-66 -63 -196 -111q-145 -53 -283 -53h-856v528h-102zM459 223h626q180 0 296 113t116 287q0 186 -123 299.5t-327 113.5h-588v-284h588v-224h-588v-305z" />
<glyph unicode="&#xf1;" horiz-adv-x="1898" d="M215 0v1260h367l856 -1051v1051h245v-1260h-366l-856 1051v-1051h-246zM594 1475q135 160 221 159q51 0 139 -39t123 -39q53 0 111 95l110 -76q-92 -172 -211 -172q-61 0 -151 38t-113 38q-49 0 -109 -99z" />
<glyph unicode="&#xf2;" d="M139 633q0 307 267 500q233 170 563 170q328 0 561 -170q266 -195 266 -500q0 -309 -264 -504q-225 -166 -563 -166t-566 166q-264 193 -264 504zM393 633q0 -201 158 -325t418 -124q258 0 414.5 124t156.5 325q0 195 -159.5 320.5t-411.5 125.5q-254 0 -415 -127 t-161 -319zM719 1710h238l141 -340h-125z" />
<glyph unicode="&#xf3;" d="M139 633q0 307 267 500q233 170 563 170q328 0 561 -170q266 -195 266 -500q0 -309 -264 -504q-225 -166 -563 -166t-566 166q-264 193 -264 504zM393 633q0 -201 158 -325t418 -124q258 0 414.5 124t156.5 325q0 195 -159.5 320.5t-411.5 125.5q-254 0 -415 -127 t-161 -319zM844 1370l141 340h238l-254 -340h-125z" />
<glyph unicode="&#xf4;" d="M139 633q0 307 267 500q233 170 563 170q328 0 561 -170q266 -195 266 -500q0 -309 -264 -504q-225 -166 -563 -166t-566 166q-264 193 -264 504zM393 633q0 -201 158 -325t418 -124q258 0 414.5 124t156.5 325q0 195 -159.5 320.5t-411.5 125.5q-254 0 -415 -127 t-161 -319zM574 1368l313 340h164l313 -340h-209l-186 203l-186 -203h-209z" />
<glyph unicode="&#xf5;" d="M139 633q0 307 267 500q233 170 563 170q328 0 561 -170q266 -195 266 -500q0 -309 -264 -504q-225 -166 -563 -166t-566 166q-264 193 -264 504zM393 633q0 -201 158 -325t418 -124q258 0 414.5 124t156.5 325q0 195 -159.5 320.5t-411.5 125.5q-254 0 -415 -127 t-161 -319zM613 1475q135 160 221 159q51 0 139 -39t123 -39q53 0 111 95l110 -76q-92 -172 -211 -172q-61 0 -151 38t-113 38q-49 0 -109 -99z" />
<glyph unicode="&#xf6;" d="M139 633q0 307 267 500q233 170 563 170q328 0 561 -170q266 -195 266 -500q0 -309 -264 -504q-225 -166 -563 -166t-566 166q-264 193 -264 504zM393 633q0 -201 158 -325t418 -124q258 0 414.5 124t156.5 325q0 195 -159.5 320.5t-411.5 125.5q-254 0 -415 -127 t-161 -319zM635 1528q0 53 38 92t91 39t92 -39t39 -92q0 -51 -39 -89t-92 -38t-91 37t-38 90zM1047 1528q0 53 38 92t91 39t92 -39t39 -92q0 -51 -39 -89t-92 -38t-91 37t-38 90z" />
<glyph unicode="&#xf7;" horiz-adv-x="1705" d="M254 541v139h1198v-139h-1198zM729 242q0 51 37 88t88 37t88 -37t37 -88t-37 -88t-88 -37q-53 0 -89 35.5t-36 89.5zM729 979q0 51 37 89t88 38t88 -38t37 -89t-37 -88t-88 -37t-88 37t-37 88z" />
<glyph unicode="&#xf8;" d="M139 633q0 307 267 500q233 170 563 170q190 0 391 -76l96 112h186l-153 -180q307 -195 307 -526q0 -309 -264 -504q-225 -166 -563 -166q-203 0 -406 80l-112 -135h-189l170 203q-293 195 -293 522zM393 633q0 -209 187 -344l626 753q-123 37 -237 37q-254 0 -415 -127 t-161 -319zM715 225q117 -41 254 -41q258 0 414.5 124t156.5 325q0 211 -201 348z" />
<glyph unicode="&#xf9;" horiz-adv-x="1865" d="M201 414v846h245v-797q0 -279 488 -279q485 0 485 279v797h246v-846q0 -199 -198.5 -325t-532.5 -126q-336 0 -534.5 126t-198.5 325zM684 1710h238l141 -340h-125z" />
<glyph unicode="&#xfa;" horiz-adv-x="1865" d="M201 414v846h245v-797q0 -279 488 -279q485 0 485 279v797h246v-846q0 -199 -198.5 -325t-532.5 -126q-336 0 -534.5 126t-198.5 325zM809 1370l141 340h238l-254 -340h-125z" />
<glyph unicode="&#xfb;" horiz-adv-x="1865" d="M201 414v846h245v-797q0 -279 488 -279q485 0 485 279v797h246v-846q0 -199 -198.5 -325t-532.5 -126q-336 0 -534.5 126t-198.5 325zM539 1368l313 340h164l313 -340h-209l-186 203l-186 -203h-209z" />
<glyph unicode="&#xfc;" horiz-adv-x="1865" d="M201 414v846h245v-797q0 -279 488 -279q485 0 485 279v797h246v-846q0 -199 -198.5 -325t-532.5 -126q-336 0 -534.5 126t-198.5 325zM600 1528q0 53 38 92t91 39t92 -39t39 -92q0 -51 -39 -89t-92 -38t-91 37t-38 90zM1012 1528q0 53 38 92t91 39t92 -39t39 -92 q0 -51 -39 -89t-92 -38t-91 37t-38 90z" />
<glyph unicode="&#xfd;" horiz-adv-x="1695" d="M10 1260h299l539 -574l538 574h300l-717 -764v-496h-246v496zM723 1370l141 340h238l-254 -340h-125z" />
<glyph unicode="&#xfe;" horiz-adv-x="1712" d="M215 0v1260h246v-130h772q201 0 319.5 -108.5t118.5 -290.5q0 -190 -124 -293.5t-355 -103.5h-731v-334h-246zM461 557h735q223 0 223 170q0 180 -237 180h-721v-350z" />
<glyph unicode="&#xff;" horiz-adv-x="1695" d="M10 1260h299l539 -574l538 574h300l-717 -764v-496h-246v496zM514 1528q0 53 38 92t91 39t92 -39t39 -92q0 -51 -39 -89t-92 -38t-91 37t-38 90zM926 1528q0 53 38 92t91 39t92 -39t39 -92q0 -51 -39 -89t-92 -38t-91 37t-38 90z" />
<glyph unicode="&#x152;" horiz-adv-x="3139" d="M170 739q0 342 297 559q254 184 629 185h1863v-223h-1249v-379h868v-224h-868v-434h1307v-223h-1915q-385 0 -635 178q-297 211 -297 561zM426 739q0 -238 179 -377t493 -139h182q184 0 184 125v805q0 104 -196 104h-172q-303 0 -486.5 -144t-183.5 -374z" />
<glyph unicode="&#x153;" horiz-adv-x="2699" d="M139 629q0 295 260 477q221 154 543 154h1608v-224h-1063v-270h739v-223h-739v-320h1110v-223h-1649q-328 0 -547 150q-262 180 -262 479zM395 629q0 -188 144.5 -297t402.5 -109h156q143 1 143 58v684q0 72 -129 71h-170q-248 0 -397.5 -113.5t-149.5 -293.5z" />
<glyph unicode="&#x178;" horiz-adv-x="1888" d="M10 1483h305l631 -692l627 692h305l-811 -897v-586h-246v586zM610 1755q0 53 38 92t91 39t92 -39t39 -92q0 -51 -39 -89t-92 -38t-91 37t-38 90zM1022 1755q0 53 38 92t91 39t92 -39t39 -92q0 -51 -39 -89t-92 -38t-91 37t-38 90z" />
<glyph unicode="&#x2c6;" horiz-adv-x="1024" d="M117 1368l313 340h164l313 -340h-209l-186 203l-186 -203h-209z" />
<glyph unicode="&#x2dc;" horiz-adv-x="1024" d="M156 1475q135 160 221 159q51 0 139 -39t123 -39q53 0 111 95l110 -76q-92 -172 -211 -172q-61 0 -151 38t-113 38q-49 0 -109 -99z" />
<glyph unicode="&#x2000;" horiz-adv-x="987" />
<glyph unicode="&#x2001;" horiz-adv-x="1974" />
<glyph unicode="&#x2002;" horiz-adv-x="987" />
<glyph unicode="&#x2003;" horiz-adv-x="1974" />
<glyph unicode="&#x2004;" horiz-adv-x="658" />
<glyph unicode="&#x2005;" horiz-adv-x="493" />
<glyph unicode="&#x2006;" horiz-adv-x="329" />
<glyph unicode="&#x2007;" horiz-adv-x="329" />
<glyph unicode="&#x2008;" horiz-adv-x="246" />
<glyph unicode="&#x2009;" horiz-adv-x="394" />
<glyph unicode="&#x200a;" horiz-adv-x="109" />
<glyph unicode="&#x2010;" horiz-adv-x="1087" d="M123 543v223h842v-223h-842z" />
<glyph unicode="&#x2011;" horiz-adv-x="1087" d="M123 543v223h842v-223h-842z" />
<glyph unicode="&#x2012;" horiz-adv-x="1087" d="M123 543v223h842v-223h-842z" />
<glyph unicode="&#x2013;" horiz-adv-x="1730" d="M123 543v223h1468v-223h-1468z" />
<glyph unicode="&#x2014;" horiz-adv-x="1996" d="M123 543v223h1751v-223h-1751z" />
<glyph unicode="&#x2018;" horiz-adv-x="563" d="M123 979v281q0 223 256 223h47v-121q-154 -2 -154 -86v-74h168v-223h-317z" />
<glyph unicode="&#x2019;" horiz-adv-x="563" d="M123 1260v223h317v-281q0 -223 -256 -223h-47v121q154 0 154 86v74h-168z" />
<glyph unicode="&#x201a;" horiz-adv-x="747" d="M215 0v223h317v-280q0 -223 -256 -224h-47v121q154 2 154 86v74h-168z" />
<glyph unicode="&#x201c;" horiz-adv-x="1050" d="M123 979v281q0 223 256 223h47v-121q-154 -2 -154 -86v-74h168v-223h-317zM610 979v281q0 223 256 223h47v-121q-154 -2 -153 -86v-74h168v-223h-318z" />
<glyph unicode="&#x201d;" horiz-adv-x="1050" d="M123 1260v223h317v-281q0 -223 -256 -223h-47v121q154 0 154 86v74h-168zM610 1260v223h318v-281q0 -223 -256 -223h-47v121q154 0 153 86v74h-168z" />
<glyph unicode="&#x201e;" horiz-adv-x="1214" d="M215 0v223h317v-280q0 -223 -256 -224h-47v121q154 2 154 86v74h-168zM682 0v223h317v-280q0 -223 -256 -224h-47v121q154 2 154 86v74h-168z" />
<glyph unicode="&#x2022;" horiz-adv-x="1089" d="M174 727q0 143 113 252q104 100 260 100q154 0 258 -100q113 -109 113 -252t-113 -252q-104 -100 -258 -100t-260 100q-113 106 -113 252z" />
<glyph unicode="&#x2026;" horiz-adv-x="1607" d="M125 848q0 195 168 312.5t452 117.5q334 0 536 -180t202 -465q0 -295 -226 -479q-211 -176 -514 -177q-381 0 -579 193l172 168q188 -137 391 -137q227 0 365.5 116.5t138.5 300.5q0 15 -2 31q-207 -197 -527 -196q-254 0 -415.5 113.5t-161.5 281.5zM373 852 q0 -84 93 -137t255 -53q305 -1 448 194q-119 193 -442 193q-168 0 -261 -53.5t-93 -143.5z" />
<glyph unicode="&#x202f;" horiz-adv-x="394" />
<glyph unicode="&#x2039;" horiz-adv-x="942" d="M150 657l346 334h297l-330 -334l325 -331h-301z" />
<glyph unicode="&#x203a;" horiz-adv-x="942" d="M150 991h296l347 -334l-338 -331h-301l325 331z" />
<glyph unicode="&#x205f;" horiz-adv-x="493" />
<glyph unicode="&#x2122;" horiz-adv-x="837" d="M20 1395v67h293v-67h-104v-273h-84v273h-105zM381 1122v340h119l80 -205l73 205h117v-340h-80v256l-94 -256h-37l-96 256v-256h-82z" />
<glyph unicode="&#x25fc;" horiz-adv-x="1259" d="M0 0v1260h1260v-1260h-1260z" />
</font>
</defs>
</svg>
